#TITLE:Fly Throught the night;
#SUBTITLE:~Ganos original~;
#ARTIST:Mr.T;
#TITLETRANSLIT:;
#SUBTITLETRANSLIT:;
#ARTISTTRANSLIT:;
#CREDIT:;
#BANNER:Fly Throught The Night.png;
#BACKGROUND:Fly Throught The Night-bg.png;
#LYRICSPATH:;
#CDTITLE:GanosCD.png;
#MUSIC:Fly Throught The Night.MP3;
#OFFSET:-0.420;
#SAMPLESTART:56.860;
#SAMPLELENGTH:14.000;
#SELECTABLE:YES;
#BPMS:0.000=140.000,100.000=70.000,116.000=140.000,180.000=70.000,196.000=140.000;
#STOPS:;
#BGCHANGES:;
// cache tags:
#FIRSTBEAT:0.500;
#LASTBEAT:235.000;
#SONGFILENAME:Songs/Chilean Keyboard Megapack 3/(Ganos) Fly Throught The Night/Fly Throught The Night.sm;
#HASMUSIC:1;
#HASBANNER:1;
#MUSICLENGTH:118.680;
// end cache tags

//---------------dance-single - ----------------
#NOTES:
     dance-single:
     :
     Challenge:
     12:
     1.000,1.000,1.000,0.025,1.000,723.000,134.000,3.000,0.000,0.000:
0000
2000
0000
0000
0000
0000
0000
3000
,
0011
1000
0000
1000
0000
1000
0000
1000
,
0101
1000
0000
1000
0000
1000
0000
1000
,
0110
0000
1000
0000
0010
0100
0001
0010
0000
0100
1000
0000
0010
0100
0001
0010
,
0000
0100
1000
0000
0010
0100
0001
0010
0000
0100
1000
0000
0010
0100
0001
0010
,
1100
0010
0001
0000
0100
0010
1000
0001
0000
0010
0001
0000
0100
0010
1000
0001
,
0000
0010
0001
0000
0100
0010
1000
0001
0100
0010
1000
0001
0100
0010
1000
0001
,
1100
0010
1000
0010
1000
0010
1000
0010
1100
0001
0100
0001
0100
0001
0100
0001
,
1000
0000
0000
0000
0000
0000
0000
0000
0100
0000
0000
0000
0000
0000
0000
0000
0010
0000
0000
0000
0000
0000
0000
0000
0001
0000
0000
0000
0000
0000
0000
0000
0010
0000
0000
0000
0000
0000
0000
0000
0100
0000
0000
0000
0000
0000
0000
0000
1000
0000
0000
0000
0000
0000
0000
0000
0010
0000
0000
0000
0000
0000
0000
0000
0100
0000
0000
0000
0000
0000
0000
0000
0001
0000
0000
0000
0000
0000
0000
0000
0100
0000
0000
0000
0000
0000
0000
0000
0010
0000
0000
0000
0000
0000
0000
0000
1000
0000
0000
0000
0000
0000
0000
0000
0100
0000
0000
0000
0000
0000
0000
0000
0010
0000
0000
0000
0000
0000
0000
0000
0001
0000
0000
0000
0000
0000
0000
0000
0010
0000
0000
0000
0000
0000
0000
0000
0100
0000
0000
0000
0000
0000
0000
0000
1000
0000
0000
0000
0000
0000
0010
0000
0000
0000
0000
0000
0100
0000
0000
0000
0000
0000
0001
0000
0000
0000
0000
0000
0100
0000
0000
0000
0000
0000
0010
0000
0000
0000
0000
0000
1000
0000
0000
0000
0000
0000
0010
0000
0000
0000
0000
0000
,
0101
0000
1000
0110
0101
0011
0110
1100
,
0010
0101
1000
0110
0001
1010
0100
1001
,
0001
0010
0100
1000
0010
0100
0001
1000
0100
0010
0100
1000
0001
0100
0010
1000
,
0001
0010
0100
0010
0001
1000
0100
0010
0001
0010
0100
1000
0010
0100
0001
1000
,
0101
0010
1000
0100
1001
0100
0010
0101
,
1000
0000
0010
0000
1100
0000
0001
0000
0100
0000
1010
0000
0100
0011
0000
0000
,
1100
0010
1000
0010
0100
0001
0010
0100
0010
0001
0100
0010
1000
0001
0010
0100
,
1000
0001
1000
0001
1000
0001
1000
0001
1000
0001
1000
0001
1000
0001
1000
0001
,
0110
1000
0000
0000
0110
0001
0000
0001
0110
0000
0011
1000
0000
0001
0110
0000
,
0000
0000
1001
0100
0000
0100
0000
0100
0011
0000
0000
0110
0000
0001
0110
0000
,
1001
0010
0100
0010
0001
0100
0010
1000
0010
0100
0010
0001
0010
0100
0010
1000
,
0100
0010
0100
1000
0001
0100
0010
0100
0001
0010
0100
1000
0100
0010
0001
1000
,
0110
1000
0000
0000
0011
1000
0000
1000
0011
0000
1100
0010
0000
0010
1100
0000
,
0000
0000
0011
0100
0000
0100
0000
0100
1010
0000
0000
0011
0000
1000
0101
0000
,
0011
1000
0100
0010
0100
1000
0010
0100
0001
0010
0100
0001
0100
1000
0010
0100
,
0001
1000
0001
1000
0001
1000
0001
1000
0001
1000
0001
1000
0001
1000
0001
1000
,
0110
0001
0000
0001
0000
0001
0000
0001
1100
0010
0000
0010
0000
0010
0000
0010
,
1001
0000
0100
0000
0000
0000
0100
0000
0000
0000
0100
0000
0000
0000
0100
0000
0010
1000
0100
0000
0010
0001
0010
0100
0000
1000
0100
0000
0010
0001
0100
0010
,
1100
0001
1000
0001
1000
0001
1000
0001
1000
0001
1000
0001
1000
0001
1000
0001
0100
0001
0100
0001
0100
0001
0100
0001
1000
0010
1000
0010
1000
0010
1000
0010
,
0101
0000
0000
0000
0000
0000
0010
0000
0000
0000
0000
0000
0100
0000
0000
0000
0000
0000
0010
0000
0000
0000
0000
0000
0100
0000
0000
0000
0000
0000
0010
0000
0000
0000
0000
0000
0100
0000
0000
0000
0000
0000
0010
0000
0000
0000
0000
0000
1001
0000
0000
0000
0000
0000
0100
0000
0000
0000
0000
0000
0001
0000
0000
0000
0000
0000
0100
0000
0000
0000
0000
0000
0001
0000
0000
0000
0000
0000
0100
0000
0000
0000
0000
0000
0001
0000
0000
0000
0000
0000
0100
0000
0000
0000
0000
0000
0001
0000
0000
0000
0010
0000
0000
0000
0100
0000
0000
0000
1000
0000
0000
0000
0010
0000
0000
0000
0100
0000
0000
0000
0001
0000
0000
0000
0010
0000
0000
0000
0100
0000
0000
0000
1000
0000
0000
0000
0010
0000
0000
0000
0100
0000
0000
0000
0001
0000
0000
0000
0010
0000
0000
0000
0100
0000
0000
0000
1000
0000
0000
0000
0010
0000
0000
0000
0100
0000
0000
0000
0001
0000
0000
0010
0000
0000
0100
0000
0000
1000
0000
0000
0100
0000
0000
0010
0000
0000
0001
0000
0000
0010
0000
0000
,
1100
0001
0000
0000
1100
0010
0000
0010
1100
0000
0011
1000
0000
1000
0011
0000
,
0110
0000
1100
0001
0000
0001
0000
0001
0110
0000
0000
1100
0000
0010
0101
0000
,
1001
0010
0110
1100
0110
0011
0101
0110
,
1010
0000
0110
0000
1001
0000
0110
0000
0011
1000
0100
0010
0001
1000
0100
0010
,
1001
0100
0000
0000
0011
1000
0000
1000
0101
0000
1100
0001
0000
0001
0110
0000
,
1001
0000
0101
0010
0000
0010
0000
0010
1100
0000
0000
0110
0000
1000
0011
0000
,
1001
0100
0010
0001
0100
0010
1000
0100
0010
0001
0100
0010
1000
0100
0010
0001
,
0100
0010
0100
0010
0100
0010
0100
0010
0100
0010
0100
0010
0100
0010
0100
0010
,
1001
0000
0001
0000
0000
0001
0000
0000
0110
0000
0100
0000
0000
0100
0000
0000
,
1010
0000
0010
0000
0000
0010
0000
0000
1001
0000
1000
0000
0000
1000
0000
0000
,
0011
0000
0010
0000
0000
0010
0000
0000
1001
0000
1000
0000
0000
1000
0000
0000
,
0101
0000
0100
0000
0000
0100
0000
0000
1010
0000
0010
0000
0000
0010
0010
0000
,
1001
0000
0000
0100
0000
0010
0010
0000
0011
0000
0000
0100
0000
0010
0010
0000
,
1010
0000
0000
0100
0000
0010
0010
0000
0101
0000
0000
0100
0000
0010
0010
0000
,
1100
0000
0000
0100
0000
1000
1000
0000
0011
0000
0000
0100
0000
0001
0001
0000
,
1000
0001
1000
0001
1000
0001
1000
0001
1000
0001
1000
0001
1000
0001
1000
0001
,
0110
0000
0000
0000
0000
0000
1000
0000
0100
0000
0010
0000
0001
0000
0100
0000
0000
0000
0010
0000
0000
0000
1000
0000
0000
0000
0000
0000
0000
0000
0001
0010
,
0100
0000
0000
0000
0000
0000
1000
0010
0100
0000
0000
0000
0000
0000
0001
0000
0000
0000
1000
0000
0000
0000
0100
0000
0010
0000
0001
0000
0100
0000
0010
1000
,
0011
0000
0000
1000
0100
0010
0001
0010
0000
0100
1000
0010
0000
0100
0001
0100
,
1010
0000
0000
0000
0000
0000
0100
0000
0000
0000
0000
0000
0010
0000
0000
0000
0000
0000
0100
0000
0000
0000
0000
0000
0010
0000
0000
0000
0000
0000
0100
0000
0000
0000
0000
0000
0010
0000
0000
0000
0000
0000
0100
0000
0000
0000
0000
0000
0011
0000
0000
0000
0000
0000
1000
0000
0000
0000
0000
0000
0001
0000
0000
0000
0000
0000
1000
0000
0000
0000
0000
0000
0001
0000
0000
0000
0000
0000
1000
0000
0000
0000
0000
0000
0001
0000
0000
0000
0000
0000
1000
0000
0000
0000
0000
0000
0001
0000
0000
0000
0010
0000
0000
0000
0100
0000
0000
0000
1000
0000
0000
0000
0010
0000
0000
0000
0100
0000
0000
0000
0001
0000
0000
0000
0010
0000
0000
0000
0100
0000
0000
0000
1000
0000
0000
0000
0010
0000
0000
0000
0100
0000
0000
0000
0001
0000
0000
0000
0010
0000
0000
0000
0100
0000
0000
0000
1000
0000
0000
0000
0010
0000
0000
0000
0100
0000
0000
0000
0001
0000
0000
0010
0000
0000
0100
0000
0000
1000
0000
0000
0010
0000
0000
0100
0000
0000
0001
0000
0000
0010
0000
0000
,
1100
0010
0000
0000
0110
1000
0000
1000
0101
0000
1001
0100
0000
0100
0011
0000
,
1001
0000
0110
0001
0000
0001
0000
0001
1100
0000
0000
0011
0000
1000
0110
0000
,
0101
1000
0011
0110
1100
0110
0101
1001
,
0110
0000
1010
0000
0101
0000
1010
0000
1001
0100
0010
0001
1000
0100
0010
0001
,
0110
1000
0000
0000
0011
1000
0000
1000
0110
0000
1001
0100
0000
0100
0011
0000
,
0110
0000
1001
0010
0000
0010
0000
0010
1100
0000
0000
0011
0000
0100
1010
0000
,
1001
0100
0010
0001
0010
0100
1000
0100
0010
0001
0010
0100
1000
0100
0010
0001
,
1000
0010
1000
0010
1000
0010
1000
0010
1000
0010
1000
0010
1000
0010
1000
0010
,
2020
0000
0000
0000
,
0000
0000
0000
0000
0000
0000
0000
0030
0000
0000
0000
0000
3000
0000
0000
0000
;
